+ vrr1.com »  :::: Dubbed Zone (Dubbed English in Hindi) » English Movies Dubbed in Hindi » High Resolution Movies
|- Passengers (2016) 1080p BluRay x264 Dual Audio [Hindi DD5.1 640 Kbps - English DD5.1] - Esub ~ Ranvi


Mastercard 10% Off

Passengers (2016) 1080p BluRay x264 Dual Audio [Hindi DD5.1 640 Kbps - English DD5.1] - Esub ~ Ranvi

0 Members and 1 Guest are viewing this topic.

September 26, 2018, 10:57:20 PM
  • Global Moderator
  • Legend Member
  • *****
  • Topic Author
  • Thank You: 10072
  • Reputation: 2077
  • Activity:
    100%
  • Country: in
  • Posts: 5234
  • Topics: 4319
  • Join Date: Jan 2014
  • ıllıllı ѕмoĸιng ιѕ good ғor нealтн ıllıllı :)






Passengers (2016) 1080p BluRay x264 Dual Audio [Hindi DD5.1 640 Kbps - English DD5.1] - Esub ~ Ranvijay


Thanks To NBT For Hindi Audio

Buy RDP Online




Quote
General
Format                                   : Matroska
Format version                           : Version 4 / Version 2
File size                                : 4.96 GiB
Duration                                 : 1 h 56 min
Overall bit rate                         : 6 112 kb/s
Movie name                               : Passengers (2016) 1080p BluRay x264 Dual Audio [Hindi DD5.1 640 Kbps - English DD5.1] - Esub ~ Ranvijay

Video
ID                                       : 1
Format                                   : AVC
Duration                                 : 1 h 56 min
Bit rate                                 : 5 000 kb/s
Width                                    : 1 920 pixels
Height                                   : 804 pixels
Display aspect ratio                     : 2.40:1
Frame rate mode                          : Constant
Frame rate                               : 23.976 (24000/1001) FPS
Color space                              : YUV
Chroma subsampling                       : 4:2:0
Bit depth                                : 8 bits
Scan type                                : Progressive
Bits/(Pixel*Frame)                       : 0.135
Stream size                              : 4.06 GiB (82%)
Title                                    : ~Ranvijay~

Audio #1
ID                                       : 2
Format                                   : AC-3
Format/Info                              : Audio Coding 3
Codec ID                                 : A_AC3
Duration                                 : 1 h 56 min
Bit rate mode                            : Constant
Bit rate                                 : 640 kb/s
Channel(s)                               : 6 channels
Channel positions                        : Front: L C R, Side: L R, LFE
Sampling rate                            : 48.0 kHz
Frame rate                               : 31.250 FPS (1536 SPF)
Bit depth                                : 16 bits
Compression mode                         : Lossy
Delay relative to video                  : 1 s 217 ms
Stream size                              : 532 MiB (10%)
Title                                    : ~Ranvijay~
Service kind                             : Complete Main
Default                                  : Yes
Forced                                   : Yes

Audio #2
ID                                       : 3
Format                                   : AC-3
Format/Info                              : Audio Coding 3
Codec ID                                 : A_AC3
Duration                                 : 1 h 56 min
Bit rate mode                            : Constant
Bit rate                                 : 448 kb/s
Channel(s)                               : 6 channels
Channel positions                        : Front: L C R, Side: L R, LFE
Sampling rate                            : 48.0 kHz
Frame rate                               : 31.250 FPS (1536 SPF)
Bit depth                                : 16 bits
Compression mode                         : Lossy
Delay relative to video                  : -83 ms
Stream size                              : 372 MiB (7%)
Title                                    : ~Ranvijay~
Language                                 : English
Service kind                             : Complete Main
Default                                  : No
Forced                                   : No

Text
ID                                       : 4
Format                                   : PGS
Muxing mode                              : zlib
Codec ID                                 : S_HDMV/PGS
Codec ID/Info                            : Picture based subtitle format used on BDs/HD-DVDs
Duration                                 : 1 h 48 min
Bit rate                                 : 46.0 kb/s
Count of elements                        : 3240
Stream size                              : 35.6 MiB (1%)
Title                                    : ~Ranvijay~
Language                                 : English
Default                                  : Yes
Forced                                   : Yes




















:download:

Quote


File Leeched & Uploaded From




Don't walk as you are king, walk as you don't care who the king is....!!
Never argue with an idiot. They drag you down to their level and then beat you with experience?

Share this topic on FacebookShare this topic on GoogleShare this topic on MySpaceShare this topic on TwitterShare this topic on Yahoo




Don't walk as you are king, walk as you don't care who the king is....!!

Thanks given by:


Tags:
 

Related Topics





Back to top
SitemapCDN$ 299.00 | Ian Lloyd Anderson | Celebrity Film Clips/Scenes