+ vrr1.com »  :::: Dubbed Zone (Dubbed English in Hindi) » English Movies Dubbed in Hindi » High Resolution Movies
|- Friday the 13th [Theatrical Cut] (2009) 1080p BluRay x264 Dual Audio [Hindi DD2.0 - English DD5.1] -


TV and Appliances

Friday the 13th [Theatrical Cut] (2009) 1080p BluRay x264 Dual Audio [Hindi DD2.0 - English DD5.1] -

0 Members and 1 Guest are viewing this topic.

September 26, 2018, 11:28:28 PM
  • Global Moderator
  • Legend Member
  • *****
  • Topic Author
  • Thank You: 10072
  • Reputation: 2077
  • Activity:
    100%
  • Country: in
  • Posts: 5234
  • Topics: 4319
  • Join Date: Jan 2014
  • ıllıllı ѕмoĸιng ιѕ good ғor нealтн ıllıllı :)






Friday the 13th [Theatrical Cut] (2009) 1080p BluRay x264 Dual Audio [Hindi DD2.0 - English DD5.1] - Esub ~ Ranvijay

Thanks To The Punisher For Hindi Audio


Quote
General
Format                                   : Matroska
Format version                           : Version 4 / Version 2
File size                                : 3.97 GiB
Duration                                 : 1 h 37 min
Overall bit rate                         : 5 841 kb/s
Movie name                               : Friday the 13th [Theatrical Cut] (2009) 1080p BluRay x264 Dual Audio [Hindi DD2.0 - English DD5.1] - Esub ~ Ranvijay

Video
ID                                       : 1
Format                                   : AVC
Format/Info                              : Advanced Video Codec
Duration                                 : 1 h 37 min
Bit rate                                 : 5 000 kb/s
Width                                    : 1 920 pixels
Height                                   : 800 pixels
Display aspect ratio                     : 2.40:1
Frame rate mode                          : Constant
Frame rate                               : 23.976 (24000/1001) FPS
Color space                              : YUV
Chroma subsampling                       : 4:2:0
Bit depth                                : 8 bits
Scan type                                : Progressive
Bits/(Pixel*Frame)                       : 0.136
Stream size                              : 3.39 GiB (86%)
Title                                    : ~Ranvijay~

Audio #1
ID                                       : 2
Format                                   : AAC
Format/Info                              : Advanced Audio Codec
Format profile                           : LC
Codec ID                                 : A_AAC-2
Duration                                 : 1 h 37 min
Bit rate                                 : 192 kb/s
Channel(s)                               : 2 channels
Channel positions                        : Front: L R
Sampling rate                            : 48.0 kHz
Frame rate                               : 46.875 FPS (1024 SPF)
Compression mode                         : Lossy
Delay relative to video                  : 1 s 417 ms
Stream size                              : 133 MiB (3%)
Title                                    : ~Ranvijay~
Language                                 : Hindi
Default                                  : Yes
Forced                                   : Yes

Audio #2
ID                                       : 3
Format                                   : AC-3
Format/Info                              : Audio Coding 3
Codec ID                                 : A_AC3
Duration                                 : 1 h 37 min
Bit rate mode                            : Constant
Bit rate                                 : 640 kb/s
Channel(s)                               : 6 channels
Channel positions                        : Front: L C R, Side: L R, LFE
Sampling rate                            : 48.0 kHz
Frame rate                               : 31.250 FPS (1536 SPF)
Bit depth                                : 16 bits
Compression mode                         : Lossy
Delay relative to video                  : -83 ms
Stream size                              : 445 MiB (11%)
Title                                    : ~Ranvijay~
Language                                 : English
Service kind                             : Complete Main
Default                                  : No
Forced                                   : No

Text
ID                                       : 4
Format                                   : PGS
Muxing mode                              : zlib
Codec ID                                 : S_HDMV/PGS
Codec ID/Info                            : Picture based subtitle format used on BDs/HD-DVDs
Duration                                 : 1 h 28 min
Bit rate                                 : 27.7 kb/s
Count of elements                        : 1750
Stream size                              : 17.5 MiB (0%)
Title                                    : ~Ranvijay~
Language                                 : English
Default                                  : Yes
Forced                                   : Yes



:download:

Quote



File Leeched & Uploaded From




Don't walk as you are king, walk as you don't care who the king is....!!
Never argue with an idiot. They drag you down to their level and then beat you with experience?

Share this topic on FacebookShare this topic on GoogleShare this topic on MySpaceShare this topic on TwitterShare this topic on Yahoo

« Last Edit: September 26, 2018, 11:34:19 PM by Rάήνίјάч1234 »



Don't walk as you are king, walk as you don't care who the king is....!!

Thanks given by:


September 27, 2018, 01:02:35 AM
Reply #1
  • Conqueror
  • Elite Forces
  • *****
  • Thank You: 493
  • Reputation: 184
  • Activity:
    41%
  • Country: in
  • Posts: 1123
  • Topics: 490
  • Join Date: Oct 2015
  • Hit ThanX Button 🔳 N Repute Button 🔳
Hit Thnx Button 🔳 N + Repute Button 🔳 Always Appreciate UploadeR 🤗 GiVe Respect GeT Respect :yu:

September 27, 2018, 10:44:39 AM
Reply #2
  • Semi Newbie
  • **
  • Thank You: 0
  • Reputation: 0
  • Activity:
    0.6%
  • Country: in
  • Posts: 7
  • Topics: 0
  • Join Date: Oct 2017
  • ShareSpark Member

September 27, 2018, 02:36:51 PM
Reply #3
  • Devoted Member
  • **
  • Thank You: 4
  • Reputation: 1
  • Activity:
    10.2%
  • Country: pk
  • Posts: 173
  • Topics: 7
  • Join Date: Mar 2013
  • ShareSpark Member
« Last Edit: September 27, 2018, 02:38:51 PM by askfriends »

September 27, 2018, 02:41:31 PM
Reply #4
  • Global Moderator
  • Legend Member
  • *****
  • Topic Author
  • Thank You: 10072
  • Reputation: 2077
  • Activity:
    100%
  • Country: in
  • Posts: 5234
  • Topics: 4319
  • Join Date: Jan 2014
  • ıllıllı ѕмoĸιng ιѕ good ғor нealтн ıllıllı :)
:thank: :rep: :10on10:

Edit: got error "storageQuotaExceeded".
any fix?
Bhai Free Ur Google Drive Space Del Some Old Data And Then Try Will Work

Don't walk as you are king, walk as you don't care who the king is....!!

September 28, 2018, 07:55:54 PM
Reply #5
  • Devoted Member
  • **
  • Thank You: 4
  • Reputation: 1
  • Activity:
    10.2%
  • Country: pk
  • Posts: 173
  • Topics: 7
  • Join Date: Mar 2013
  • ShareSpark Member

Tags:
 

Related Topics





Back to top
SitemapBuffy: Postrach wampirw / Buffy the Vampire Slayer | Style Up Your Life (0) | blacked.16.08.18.Lana.Rhoades.and.Leah.Gotti.4k.mp4