+ vrr1.com »  :::: Dubbed Zone (Dubbed English in Hindi) » English Movies Dubbed in Hindi » High Resolution Movies
|- Hannah Montana - The Movie (2009) 1080p WEB-Rip x264 Dual Audio [Hindi DD2.0 - English DD2.0] ~ Ranv


Mastercard 10% Off

Hannah Montana - The Movie (2009) 1080p WEB-Rip x264 Dual Audio [Hindi DD2.0 - English DD2.0] ~ Ranv

0 Members and 1 Guest are viewing this topic.

October 09, 2018, 12:45:57 PM
  • Global Moderator
  • Legend Member
  • *****
  • Topic Author
  • Thank You: 10072
  • Reputation: 2077
  • Activity:
    100%
  • Country: in
  • Posts: 5233
  • Topics: 4319
  • Join Date: Jan 2014
  • ıllıllı ѕмoĸιng ιѕ good ғor нealтн ıllıllı :)




Hannah Montana - The Movie (2009) 1080p WEB-Rip x264 Dual Audio [Hindi DD2.0 - English DD2.0] ~ Ranvijay

Source :- The Punisher

Buy RDP Online




Quote
General
Format                                   : Matroska
Format version                           : Version 4 / Version 2
File size                                : 3.69 GiB
Duration                                 : 1 h 38 min
Overall bit rate                         : 5 386 kb/s
Movie name                               : Hannah Montana - The Movie (2009) 1080p WEB-Rip x264 Dual Audio [Hindi DD2.0 - English DD2.0] ~ Ranvijay

Video
ID                                       : 1
Format                                   : AVC
Format/Info                              : Advanced Video Codec
Duration                                 : 1 h 38 min
Bit rate                                 : 5 000 kb/s
Width                                    : 1 920 pixels
Height                                   : 1 088 pixels
Display aspect ratio                     : 16:9
Frame rate mode                          : Constant
Frame rate                               : 25.000 FPS
Color space                              : YUV
Chroma subsampling                       : 4:2:0
Bit depth                                : 8 bits
Scan type                                : Progressive
Bits/(Pixel*Frame)                       : 0.096
Stream size                              : 3.42 GiB (93%)
Title                                    : ~Ranvijay~

Audio #1
ID                                       : 2
Format                                   : AAC
Format/Info                              : Advanced Audio Codec
Format profile                           : LC
Codec ID                                 : A_AAC-2
Duration                                 : 1 h 38 min
Bit rate                                 : 192 kb/s
Channel(s)                               : 2 channels
Channel positions                        : Front: L R
Sampling rate                            : 48.0 kHz
Frame rate                               : 46.875 FPS (1024 SPF)
Compression mode                         : Lossy
Delay relative to video                  : -80 ms
Stream size                              : 135 MiB (4%)
Title                                    : ~Ranvijay~
Language                                 : Hindi
Default                                  : Yes
Forced                                   : Yes

Audio #2
ID                                       : 3
Format                                   : AAC
Format/Info                              : Advanced Audio Codec
Format profile                           : LC
Codec ID                                 : A_AAC-2
Duration                                 : 1 h 38 min
Bit rate                                 : 192 kb/s
Channel(s)                               : 2 channels
Channel positions                        : Front: L R
Sampling rate                            : 48.0 kHz
Frame rate                               : 46.875 FPS (1024 SPF)
Compression mode                         : Lossy
Delay relative to video                  : -21 ms
Stream size                              : 135 MiB (4%)
Title                                    : ~Ranvijay~
Language                                 : English
Default                                  : No
Forced                                   : No











:download:

Quote



File Leeched & Uploaded From




Don't walk as you are king, walk as you don't care who the king is....!!
Never argue with an idiot. They drag you down to their level and then beat you with experience?

Share this topic on FacebookShare this topic on GoogleShare this topic on MySpaceShare this topic on TwitterShare this topic on Yahoo




Don't walk as you are king, walk as you don't care who the king is....!!

Thanks given by:


Tags:
 

Related Topics





Back to top
SitemapAustralia Top Mp3 Music Chart (03 Dec 2018) | History Essay Topics | SIS vs BRO